مشاهدة نتيجة التصويت: هل اقوم برفعه ؟ استحلفك بالله ان تجاوب بصراحة: هل سوف تحمل ام لا

المصوتون
12. لا يمكنك التصويت في هذا التصويت
  • توكل علي الله وان شاء الله نحن معك ؟

    10 83.33%
  • لا لا هذه المساحة رهيبة وليس من الهام ان ترفعها

    2 16.67%
مشاهدة النتائج 1 الى 11 من 11
  1. #1

    فيلم 2012 اعلي جودة ممكن ان تشاهدها عينك

    بسم الله الرحمن الرحيم


    تم بحمد لله الشراء والحصول علي اعلي نسخة من فيلم 2012

    طبعا ده اول فيلم اشتريه في حياتي وده طبعا عشان انا مصمم ديزين وعجبني كتيرر فكرة الفيلم والاخراج

    والابداع الي ابعد حدود

    مميزات النسخة البلو راي حاجة متتوصفش بجد يعني هتحس انك عايش جوة الفيلم


    صور بسيطة من الفيلم من الجودة

    64485859

    97958103

    98459536


    مساحة النسخة يا جماعة 12.6
    GiB

    smailes71smailes71smailes71

    كود:
    Format : Matroska
    File size : 12.6 GiB
    Duration : 2h 37mn
    Overall bit rate : 13.8 Mbps
    Encoded date : UTC 2010-01-18 18:31:47
    Writing application : mkvmerge v2.5.2
    Writing library : libebml v0.7.7 + libmatroska v0.8.1

    Video
    ID : 1
    Format : AVC
    Format/Info : Advanced Video Codec
    Format profile : High@L4.1
    Format settings, CABAC : Yes
    Format settings, ReFrames : 5 frames
    Muxing mode : Container profile=Unknown@4.1
    Codec ID : V_MPEG4/ISO/AVC
    Duration : 2h 37mn
    Bit rate : 11.8 Mbps
    Nominal bit rate : 12.1 Mbps
    Width : 1 920 pixels
    Height : 800 pixels
    Display aspect ratio : 2.40:1
    Frame rate : 23.976 fps
    Resolution : 24 bits
    Colorimetry : 4:2:0
    Scan type : Progressive
    Bits/(Pixel*Frame) : 0.321
    Stream size : 13.0 GiB (86%)
    Title : 2012.2009
    Writing library : x264 core 80 r1373 4322f63
    Language : English

    Audio #1
    ID : 2
    Format : DTS
    Format/Info : Digital Theater Systems
    Codec ID : A_DTS
    Duration : 2h 37mn
    Bit rate mode : Constant
    Bit rate : 1 510 Kbps
    Channel(s) : 6 channels
    Channel positions : Front: L C R, Surround: L R, LFE
    Sampling rate : 48.0 KHz
    Resolution : 24 bits
    Stream size : 1.66 GiB (11%)
    Title : DTS-HD MA core 1536k
    Language : English

    Audio #2
    ID : 3
    Format : AC-3
    Format/Info : Audio Coding 3
    Codec ID : A_AC3
    Duration : 2h 37mn
    Bit rate mode : Constant
    Bit rate : 192 Kbps
    Channel(s) : 2 channels
    Channel positions : L R
    Sampling rate : 48.0 KHz
    Stream size : 217 MiB (1%)
    Title : DD2.0 192K Vorbis commentary
    Language : English







    طبعا ليكم هتكون مجانا smailes21

    بس انا عملت تصويت بس يا ريت يا جماعة مش اي حد يصوت

    انا عامل التصويت ده علشان اعرف يا تري ارفع النسخة ليكم وهتستفيده بيها

    ولا مرفعهاش يعني مفيش حد هينزلها بسبب مسحتها الكبيرة

    لو كان ملهاش لازمة يبقي بلاش عشان والله انا هتعب كتيرر في رفعها

    دول 12 جيجا بس وعد مش هيخده يومين بالكتير ان شاء الله

    مع العلم اني هرفع علي سرفر مباشر

    في انتظار ارائكم
    0


  2. ...

  3. #2
    تم التصويت smile

    الله معاك خيوو
    يااااااااااااارب اجيب معدل عشان ادخل الطب ياااااااااااااااارب

    437f7be50bdcf2bae94d35cd85bf18cc
    0

  4. #3
    0

  5. #4
    مشكوووووووووووور
    لكني شفت الفلم
    اللهــــــم صل وسلم على سيدنا وحبيبنا محمد
    يعطيك الف عافية على التوقيع الرائع (RORONOA ZOR0)
    88813725f64ec93244984ff093a86494
    0

  6. #5
    0

  7. #6
    0

  8. #7
    لا أنصحك لأنه الفلم موجود تورنت بلو ري وبمساحة 2gb
    sigpic304743_1

    PSN ID: Nabeel_Q
    0

  9. #8
    بكيفك بس تكدر تحول الفلم الى xvid جودة قوية وحجم صغير وشكراااااااااا
    سبحان لله وبحمده سبحان لله العضيم


    104d45f6b394d9873fa2c2d6e6fc5f69
    0

  10. #9
    0

  11. #10
    مشكور على الموضوع
    ارفعه و الله معاك
    attachment
    0

  12. #11
    يغلق المووضوع
    يمنع وضع موضوع اقتراحات او استفتارات
    الا في مكانها الصحيح
    5397b796a21a9681f74ff31723790714

    ||~happy birthday to dmx embarrassed
    ثكرن حياتوو طمعه ^_~
    0

بيانات عن الموضوع

الأعضاء الذين يشاهدون هذا الموضوع

عدد زوار الموضوع الآن 1 . (0 عضو و 1 ضيف)

المفضلات

collapse_40b قوانين المشاركة

  • غير مصرّح لك بنشر موضوع جديد
  • غير مصرّح بالرد على المواضيع
  • غير مصرّح لك بإرفاق ملفات
  • غير مصرّح لك بتعديل مشاركاتك
  •  

مكسات على ايفون  مكسات على اندرويد  Rss  Facebook  Twitter